<?xml version="1.0" standalone="no"?>
<!DOCTYPE svg PUBLIC "-//W3C//DTD SVG 1.1//EN" "http://www.w3.org/Graphics/SVG/1.1/DTD/svg11.dtd" >
<svg xmlns="http://www.w3.org/2000/svg" xmlns:xlink="http://www.w3.org/1999/xlink" version="1.1">
<metadata></metadata>
<defs>
<font id="ralewayblack" horiz-adv-x="1226" >
<font-face units-per-em="2048" ascent="1638" descent="-410" />
<missing-glyph horiz-adv-x="460" />
<glyph unicode="&#xfb01;" horiz-adv-x="1271" d="M41 659v293h133v117q0 102 36 184t101.5 140.5t155.5 90.5t197 32q80 0 154.5 -17.5t152.5 -54.5t164 -92l-148 -295q-70 61 -147.5 96t-149.5 35q-39 0 -67.5 -11.5t-44 -35t-15.5 -58.5v-131h613v-952h-390v659h-223v-659h-389v659h-133z" />
<glyph unicode="&#xfb02;" horiz-adv-x="1470" d="M41 659v293h133v154q0 143 65.5 233.5t182.5 133.5t268 43q279 0 406 -128t127 -344v-600q0 -39 19.5 -77.5t68.5 -38.5q35 0 74.5 16t41.5 16l48 -311q-2 -2 -50.5 -19.5t-119 -32.5t-144.5 -15q-154 0 -240.5 76.5t-86.5 181.5v729q0 74 -8.5 123t-36 72.5t-82.5 23.5 t-86 -22.5t-44.5 -61.5t-13.5 -92v-60h142v-293h-142v-659h-389v659h-133z" />
<glyph unicode="&#xfb03;" horiz-adv-x="1865" d="M41 659v293h133v47q0 135 49 235.5t139.5 156t212.5 55.5q74 0 160 -20.5t185 -61.5l-68 -295q-45 20 -99.5 34.5t-95.5 14.5q-25 0 -42 -6t-28.5 -19.5t-17.5 -33t-6 -45.5v-62h236v-293h-236v-659h-389v659h-133zM635 659v293h133v117q0 102 36 184t101.5 140.5 t155.5 90.5t196 32q80 0 155 -17.5t152.5 -54.5t164.5 -92l-148 -295q-70 61 -147.5 96t-149.5 35q-39 0 -67.5 -11.5t-44 -35t-15.5 -58.5v-131h612v-952h-389v659h-223v-659h-389v659h-133z" />
<glyph unicode="&#xfb04;" horiz-adv-x="2060" d="M41 659v293h133v47q0 135 49 235.5t139.5 156t212.5 55.5q74 0 160 -20.5t185 -61.5l-68 -295q-45 20 -99.5 34.5t-95.5 14.5q-25 0 -42 -6t-28.5 -19.5t-17.5 -33t-6 -45.5v-62h236v-293h-236v-659h-389v659h-133zM631 659v293h133v154q0 143 65.5 233.5t182 133.5 t268.5 43q279 0 405.5 -128t126.5 -344v-600q0 -39 19.5 -77.5t69.5 -38.5q35 0 74.5 16t41.5 16l47 -311q-2 -2 -50 -19.5t-118.5 -32.5t-144.5 -15q-154 0 -241 76.5t-87 181.5v729q0 74 -8 123t-35.5 72.5t-83.5 23.5q-55 0 -85.5 -22.5t-44 -61.5t-13.5 -92v-60h141 v-293h-141v-659h-389v659h-133z" />
<glyph horiz-adv-x="0" />
<glyph horiz-adv-x="682" />
<glyph horiz-adv-x="0" />
<glyph horiz-adv-x="0" />
<glyph unicode="&#xd;" horiz-adv-x="0" />
<glyph unicode=" "  horiz-adv-x="460" />
<glyph unicode="&#x09;" horiz-adv-x="460" />
<glyph unicode="&#xa0;" horiz-adv-x="460" />
<glyph unicode="!" horiz-adv-x="741" d="M176 0v377h389v-377h-389zM176 614v854h389v-854h-389z" />
<glyph unicode="&#x22;" horiz-adv-x="974" d="M109 1016v479h327v-479h-327zM539 1016v479h327v-479h-327z" />
<glyph unicode="#" horiz-adv-x="1550" d="M74 348v287h299l41 178h-236v266h301l92 375h310l-95 -375h123l92 375h310l-94 -375h260v-266h-326l-41 -178h262v-287h-332l-84 -348h-309l86 348h-123l-84 -348h-309l86 348h-229zM680 635h123l41 178h-123z" />
<glyph unicode="$" horiz-adv-x="1329" d="M66 152l172 350l40 -24q41 -25 109 -56t151 -55.5t167 -24.5q66 0 91 17.5t25 46.5q0 43 -45 66.5t-117.5 45t-160.5 49.5q-127 43 -209 97.5t-121 129t-39 181.5q0 162 76 270.5t199.5 164.5t267.5 56q106 0 205.5 -25.5t186.5 -62.5t153 -69l-173 -330l-34 21 q-35 20 -92.5 45.5t-125 46t-133.5 20.5q-51 0 -83.5 -16.5t-32.5 -55.5q0 -37 32.5 -59.5t93 -40.5t144.5 -45q135 -41 233.5 -94t151.5 -136t53 -221q0 -131 -47 -220t-127 -142t-178 -76.5t-201 -23.5q-104 0 -217.5 21.5t-220 59t-194.5 89.5zM596 195h164v-459h-164 v459zM596 1247v422h164v-393zM625 240v966l106 29v-999z" />
<glyph unicode="%" horiz-adv-x="1742" d="M68 1151q0 90 48 164t131 117t185 43t185 -43t131.5 -117t48.5 -164t-48.5 -164t-131.5 -117t-185 -43t-185 43t-131 117t-48 164zM240 133l579 653l514 691l170 -154l-555 -633l-538 -710zM334 1151q0 -37 13 -68.5t35.5 -51t49.5 -19.5t49.5 19.5t35.5 51t13 68.5 q0 39 -13 69.5t-35.5 50t-49.5 19.5t-49.5 -19.5t-35.5 -50t-13 -69.5zM946 303q0 90 48 164t131 117t186 43q102 0 185 -43t131 -117t48 -164t-48 -163.5t-131 -116.5t-185 -43t-185.5 43t-131.5 116.5t-48 163.5zM1212 303q0 -37 13.5 -68.5t36 -51t49.5 -19.5t49 19.5 t35.5 51t13.5 68.5q0 39 -13.5 69.5t-36 50t-48.5 19.5q-27 0 -49.5 -19.5t-36 -50t-13.5 -69.5z" />
<glyph unicode="&#x26;" horiz-adv-x="1533" d="M72 442q0 119 54 207t134 153.5t156 112.5q88 55 140 86t75.5 56.5t23.5 60.5t-19.5 53.5t-51.5 18.5q-23 0 -40.5 -10.5t-25.5 -26.5t-8 -39q0 -27 17.5 -48.5t58.5 -57t110 -111.5l850 -897h-510l-647 692q-86 92 -137 157.5t-72.5 123t-21.5 125.5q0 119 55 202.5 t152.5 128t218.5 44.5q106 0 203.5 -36t161 -113t63.5 -202q0 -100 -44 -184t-121 -153.5t-175 -127.5q-66 -39 -118 -72.5t-81 -67.5t-29 -75q0 -29 17.5 -66.5t57.5 -65t106 -27.5q68 0 140.5 35.5t135 107.5t100 178.5t37.5 247.5h314q-2 -223 -70 -388t-179.5 -272.5 t-246.5 -159.5t-272 -52q-168 0 -283 68.5t-172 175t-57 218.5z" />
<glyph unicode="'" horiz-adv-x="544" d="M109 1016v479h327v-479h-327z" />
<glyph unicode="(" horiz-adv-x="700" d="M51 713q0 207 92.5 423t227.5 445l297 -119q-25 -39 -66 -118.5t-85 -186t-73.5 -223.5t-29.5 -227q0 -168 70.5 -339t172.5 -366l-282 -137q-84 127 -158 267t-120 288t-46 293z" />
<glyph unicode=")" horiz-adv-x="698" d="M31 1462l297 119q135 -229 227 -445t92 -423q0 -145 -46 -293t-119.5 -288t-157.5 -267l-283 137q102 195 173 366t71 339q0 111 -30 227.5t-74 223t-85 186t-65 118.5z" />
<glyph unicode="*" horiz-adv-x="745" d="M86 1225l49 157l154 -73l-15 168h197l-14 -168l153 73l49 -157l-147 -43l100 -160l-141 -92l-98 170l-99 -170l-141 92l100 160z" />
<glyph unicode="+" horiz-adv-x="876" d="M90 573v308h174v194h348v-194h174v-308h-174v-194h-348v194h-174z" />
<glyph unicode="," horiz-adv-x="526" d="M102 0v377h322v-377l-111 -322h-168l74 322h-117z" />
<glyph unicode="-" horiz-adv-x="845" d="M102 391v348h641v-348h-641z" />
<glyph unicode="." horiz-adv-x="520" d="M102 0v377h316v-377h-316z" />
<glyph unicode="/" horiz-adv-x="1591" d="M53 0l1055 1454h430l-1057 -1454h-428z" />
<glyph unicode="0" horiz-adv-x="1257" d="M86 600q0 180 71.5 320.5t194.5 221.5t279 81q154 0 275.5 -81t193 -221.5t71.5 -320.5t-71.5 -320.5t-193.5 -220t-277 -79.5q-154 0 -277 79.5t-194.5 220t-71.5 320.5zM475 600q0 -80 19.5 -139.5t54.5 -92t80 -32.5q43 0 76.5 32.5t53 92t19.5 139.5t-19.5 139.5 t-53 93t-76.5 33.5q-45 0 -80 -33.5t-54.5 -93t-19.5 -139.5z" />
<glyph unicode="1" horiz-adv-x="1120" d="M84 618v357q29 0 79 20.5t103 52t94 64.5t54 57h397v-821h260v-348h-948v348h291v408q-18 -25 -57.5 -48.5t-87.5 -44t-97 -33t-88 -12.5z" />
<glyph unicode="2" d="M63 0q0 102 16.5 180t53.5 139.5t95.5 112.5t144.5 96q111 59 176 96.5t97 59t41 36.5t9 34q0 35 -15 56t-42 32.5t-66 11.5q-33 0 -64.5 -8t-62 -26.5t-62.5 -46.5t-65 -66l-245 288q41 43 101.5 79t135 61.5t158.5 40t172 14.5q156 0 262.5 -44t161.5 -126t55 -199 q0 -63 -16.5 -113.5t-45 -89t-66.5 -71.5t-81 -62q-31 -16 -64.5 -33.5t-68.5 -34t-69.5 -33.5t-69.5 -36h504v-348h-1080z" />
<glyph unicode="3" horiz-adv-x="1189" d="M41 -137l199 282q59 -45 125.5 -67.5t152.5 -22.5q104 0 152.5 32t48.5 101q0 78 -61.5 112t-200.5 34h-64v270h72q98 0 157.5 39t59.5 102q0 33 -15.5 56.5t-45 36t-72.5 12.5q-70 0 -133.5 -36t-110.5 -107l-246 288q49 55 132 96.5t187.5 65t215.5 23.5 q152 0 265.5 -45t177 -126t63.5 -190q0 -80 -35 -151.5t-94 -120t-135 -62.5q84 -14 148.5 -66t101 -130t36.5 -172q0 -129 -70.5 -222.5t-201.5 -144.5t-311 -51q-156 0 -279 41t-219 123z" />
<glyph unicode="4" horiz-adv-x="1200" d="M31 -6v348l649 827h266v-827h180v-348h-180v-254h-389v254h-526zM414 342h188v246z" />
<glyph unicode="5" horiz-adv-x="1150" d="M49 -76l213 246q59 -63 132 -99t143 -36q51 0 86.5 18.5t55 53t19.5 79.5t-17 79t-49 52.5t-75 18.5t-79 -19.5t-54 -52.5h-334l172 905h729v-354h-448l-23 -158l22 5q23 6 72 6q141 0 251 -60.5t171.5 -167t61.5 -245.5q0 -147 -72 -260t-197.5 -176.5t-293.5 -63.5 q-160 0 -288 60.5t-198 168.5z" />
<glyph unicode="6" horiz-adv-x="1247" d="M80 696q0 -227 64.5 -386.5t186.5 -244.5t296 -85q156 0 278.5 68.5t194 184.5t71.5 259q0 137 -66.5 244.5t-182 170t-263.5 62.5q-47 0 -88 -7.5t-73.5 -22.5t-59.5 -40q4 74 31 125t76 78.5t114 27.5q70 0 135.5 -28.5t118.5 -81.5l215 250q-96 96 -212.5 146 t-249.5 50q-182 0 -313.5 -92t-202 -265t-70.5 -413zM453 492q0 49 23.5 87.5t63.5 61.5t87 23q49 0 88 -23t62.5 -61.5t23.5 -87.5t-24.5 -92.5t-63.5 -69t-86 -25.5q-45 0 -85 25.5t-64.5 68.5t-24.5 93z" />
<glyph unicode="7" horiz-adv-x="1214" d="M61 842v354h1168l-711 -1454h-440l538 1100h-555z" />
<glyph unicode="8" horiz-adv-x="1251" d="M76 465q0 74 27.5 133t68.5 104.5t80 73.5q-39 25 -69.5 64t-48 87t-17.5 95q0 104 47 185t122.5 136.5t165 83t173.5 27.5t174 -27.5t165.5 -82t123 -134.5t47.5 -184q0 -47 -18.5 -96t-49.5 -90t-70 -64q41 -31 82 -77t68 -107t27 -139q0 -141 -74 -248t-199 -166 t-276 -59q-143 0 -269.5 59t-203 168.5t-76.5 257.5zM471 475q0 -31 12.5 -56.5t33 -45t48 -29.5t60.5 -10q45 0 79.5 19.5t54 51t19.5 70.5q0 35 -11 60.5t-32.5 44t-49.5 27.5t-60 9q-45 0 -80 -17t-54.5 -49t-19.5 -75zM512 1014q0 -37 16.5 -60.5t43 -36t53.5 -12.5 q29 0 54.5 12.5t42.5 36t17 60.5q0 27 -14 49t-40 35.5t-60 13.5q-33 0 -58.5 -13.5t-40 -35.5t-14.5 -49z" />
<glyph unicode="9" horiz-adv-x="1206" d="M55 657q0 -135 66.5 -243.5t183.5 -171t262 -62.5q49 0 89 7.5t73 23.5t59 39q-2 -72 -29.5 -124t-75.5 -80t-116 -28q-70 0 -135 29t-119 82l-215 -250q96 -96 214 -146t249 -50q182 0 313.5 93t202 265t70.5 412q0 227 -64.5 386.5t-186.5 244.5t-296 85 q-156 0 -278.5 -68.5t-194.5 -184.5t-72 -259zM426 657q0 51 24.5 93.5t64.5 68t85 25.5q47 0 86 -25.5t63.5 -67.5t24.5 -94q0 -47 -23.5 -87t-62.5 -62.5t-88 -22.5q-47 0 -87 22.5t-63.5 62.5t-23.5 87z" />
<glyph unicode=":" horiz-adv-x="622" d="M154 0v377h315v-377h-315zM154 686v377h315v-377h-315z" />
<glyph unicode=";" horiz-adv-x="624" d="M152 0v377h321v-377l-111 -322h-167l73 322h-116zM156 686v377h315v-377h-315z" />
<glyph unicode="&#x3c;" horiz-adv-x="1067" d="M63 430v180l869 529v-414l-303 -195l303 -178v-434z" />
<glyph unicode="=" horiz-adv-x="886" d="M113 207v246h661v-246h-661zM113 678v246h661v-246h-661z" />
<glyph unicode="&#x3e;" horiz-adv-x="1067" d="M135 -82v434l303 178l-303 195v414l869 -529v-180z" />
<glyph unicode="?" horiz-adv-x="1013" d="M70 1208q35 84 98 142.5t148 90.5t184 32q78 0 156.5 -23t144 -72t105.5 -129t40 -194q0 -49 -8 -94.5t-27.5 -85t-51.5 -75.5t-77 -67q-59 -41 -121.5 -69.5t-105.5 -58.5t-43 -75h-317q0 59 9 112.5t44 102t108 86.5q23 12 65 33t85 49.5t72.5 64.5t29.5 79 q0 31 -17.5 54.5t-45 35.5t-60.5 12q-49 0 -80.5 -23.5t-51 -53t-36.5 -50.5zM201 0v336h317v-336h-317z" />
<glyph unicode="@" horiz-adv-x="1744" d="M76 473q0 188 64.5 330.5t175 239t253.5 144.5t301 48q152 0 291 -46t251 -141.5t176.5 -243t64.5 -351.5q0 -35 -5.5 -93.5t-21.5 -126t-52 -128t-97.5 -99.5t-155.5 -39q-76 0 -121 24.5t-65.5 59.5t-26.5 66q-70 -63 -160 -96t-186 -33q-156 0 -237 81t-81 214 q0 119 55.5 187.5t143.5 98t182 29.5q78 0 130.5 -13.5t78.5 -27.5q0 55 -18.5 97t-65.5 65.5t-133 23.5t-152.5 -22.5t-107.5 -61.5l-65 199q78 53 171 76.5t193 23.5q147 0 230 -42t120 -109.5t45.5 -142t8.5 -142.5v-137q0 -59 5 -118.5t26.5 -97.5t68.5 -38 q49 0 77.5 38t43 94t18.5 110.5t4 87.5q0 137 -45 252.5t-129 200.5t-202.5 131.5t-268.5 46.5q-147 0 -265 -46.5t-199 -130.5t-124 -197.5t-43 -248.5q0 -129 40 -242.5t117 -198.5t187.5 -134.5t253.5 -49.5q106 0 177 25t147 53l41 -139q-88 -41 -183.5 -61.5 t-187.5 -20.5q-154 0 -289 54.5t-236 154.5t-159.5 242.5t-58.5 320.5zM668 285q0 -39 12 -64.5t40 -38t68 -12.5q29 0 77 7.5t87 27.5q18 10 37 24.5t31 33t12 40.5v84q-31 12 -87 25.5t-116 13.5q-55 0 -91 -15.5t-53 -47t-17 -78.5z" />
<glyph unicode="A" horiz-adv-x="1366" d="M-4 0l465 1454h446l463 -1454h-405l-88 285h-388l-86 -285h-407zM549 551h264l-129 512z" />
<glyph unicode="B" horiz-adv-x="1413" d="M125 0v1454h844q102 0 177 -54t114.5 -140t39.5 -179q0 -100 -52 -194t-156 -142q125 -37 197.5 -128.5t72.5 -243.5q0 -131 -70.5 -213t-189.5 -121t-262 -39h-715zM524 336h316q33 0 59.5 14.5t41.5 41t15 63.5t-13 64.5t-35.5 44t-53.5 16.5h-330v-244zM524 891h273 q27 0 51 9t40.5 33.5t16.5 70.5q0 41 -13 64.5t-34.5 34.5t-48.5 11h-285v-223z" />
<glyph unicode="C" horiz-adv-x="1415" d="M45 739q0 133 50 261t146.5 232.5t234.5 167t312 62.5q209 0 365 -87t231 -230l-305 -217q-27 72 -77 110.5t-108 54t-114 15.5q-86 0 -148.5 -34t-102.5 -89t-59 -122.5t-19 -135.5q0 -76 22.5 -145.5t65.5 -124t105.5 -85t139.5 -30.5q55 0 112.5 17.5t105 56.5 t71.5 104l326 -194q-43 -106 -143.5 -182t-227.5 -116t-252 -40q-162 0 -296 64.5t-231 172t-150.5 241.5t-53.5 273z" />
<glyph unicode="D" horiz-adv-x="1466" d="M125 0v1454h559q242 0 404.5 -97t245.5 -262t83 -366q0 -221 -91 -385t-256 -254t-386 -90h-559zM524 348h160q104 0 177 49t112 136t39 196q0 113 -39 198t-113 132t-176 47h-160v-758z" />
<glyph unicode="E" horiz-adv-x="1222" d="M125 0v1454h1018v-348h-619v-205h529v-323h-529v-230h637v-348h-1036z" />
<glyph unicode="F" horiz-adv-x="1153" d="M125 0v1454h997v-348h-598v-242h488v-323h-488v-541h-399z" />
<glyph unicode="G" horiz-adv-x="1513" d="M47 739q0 154 57.5 285t159 230.5t236.5 154.5t293 55q197 0 356.5 -85t236.5 -232l-296 -227q-43 86 -129.5 138t-182.5 52q-72 0 -131 -28.5t-103 -80t-67.5 -122t-23.5 -154.5q0 -86 24.5 -155.5t68.5 -120t105.5 -78t136.5 -27.5q96 0 184.5 48t160.5 136v-389 q-164 -149 -379 -149q-141 0 -269.5 50t-226.5 147.5t-154.5 235.5t-56.5 316zM844 487v287h598v-774h-330v487h-268z" />
<glyph unicode="H" horiz-adv-x="1536" d="M125 0v1454h399v-536h488v536h399v-1454h-399v569h-488v-569h-399z" />
<glyph unicode="I" horiz-adv-x="649" d="M125 0v1454h399v-1454h-399z" />
<glyph unicode="J" horiz-adv-x="1019" d="M2 68l84 325q12 -8 77.5 -34.5t153.5 -26.5q63 0 102.5 21.5t59 66.5t26.5 117.5t7 177.5v739h399v-739q0 -166 -19.5 -301t-78.5 -233.5t-178 -151t-318 -52.5q-94 0 -171.5 23t-143.5 68z" />
<glyph unicode="K" horiz-adv-x="1413" d="M125 0v1454h399v-553l443 553h450l-528 -651l565 -803h-459l-360 535l-111 -115v-420h-399z" />
<glyph unicode="L" horiz-adv-x="1198" d="M125 0v1454h399v-1106h660v-348h-1059z" />
<glyph unicode="M" horiz-adv-x="1748" d="M125 0v1454h436l313 -684l316 684h434v-1454h-399v766l-244 -539h-213l-244 539v-766h-399z" />
<glyph unicode="N" horiz-adv-x="1544" d="M125 0v1454h311l584 -739v739h399v-1454h-317l-578 715v-715h-399z" />
<glyph unicode="O" horiz-adv-x="1566" d="M45 729q0 145 55.5 276.5t154.5 234.5t235.5 162.5t297.5 59.5q166 0 301.5 -62.5t231.5 -169t148.5 -238.5t52.5 -271q0 -143 -54.5 -274.5t-154 -234.5t-234.5 -163.5t-299 -60.5q-166 0 -301 62.5t-232 168t-149.5 237.5t-52.5 273zM451 725q0 -74 20.5 -142.5 t61 -122.5t103 -86t148.5 -32t149.5 33t103.5 89t59.5 124.5t19.5 140.5q0 74 -20.5 141.5t-61.5 122t-104.5 85t-147.5 30.5q-86 0 -148.5 -33t-103.5 -87t-60 -122.5t-19 -140.5z" />
<glyph unicode="P" horiz-adv-x="1275" d="M125 0v1454h627q106 0 196 -43t155.5 -115.5t101.5 -163t36 -182.5q0 -129 -60.5 -243.5t-168 -187.5t-250.5 -73h-238v-446h-399zM524 795h211q25 0 47.5 14t38 49t15.5 92q0 61 -17.5 95t-43 47.5t-50.5 13.5h-201v-311z" />
<glyph unicode="Q" horiz-adv-x="1566" d="M45 729q0 145 55.5 277.5t154.5 234.5t235.5 162.5t297.5 60.5q166 0 301.5 -63.5t231.5 -170t148.5 -238.5t52.5 -271q0 -143 -54.5 -274.5t-154 -234.5t-234.5 -162.5t-299 -59.5q-166 0 -301 61.5t-232 167t-149.5 237.5t-52.5 273zM451 725q0 -74 20.5 -141.5 t61 -121.5t103 -86t148.5 -32t149.5 33t103.5 88t59.5 123.5t19.5 140.5q0 74 -20.5 142.5t-61.5 122t-104.5 85t-147.5 31.5q-86 0 -148.5 -33t-103.5 -88t-60 -123.5t-19 -140.5zM621 614h372l566 -614h-373z" />
<glyph unicode="R" horiz-adv-x="1382" d="M125 0v1454h668q106 0 196 -43t155.5 -115.5t101.5 -163t36 -182.5q0 -84 -24.5 -161.5t-71.5 -142t-113 -111.5l307 -535h-438l-256 446h-162v-446h-399zM524 795h252q25 0 47.5 18t38 53t15.5 84q0 51 -17.5 85t-43 52.5t-50.5 18.5h-242v-311z" />
<glyph unicode="S" horiz-adv-x="1263" d="M27 152l172 350l41 -24q41 -25 108.5 -56t150.5 -55.5t167 -24.5q66 0 91 17.5t25 46.5q0 43 -45 66.5t-117.5 45t-160.5 49.5q-127 43 -209 97.5t-121 129t-39 181.5q0 162 76 270.5t199.5 164.5t267.5 56q106 0 205.5 -25.5t186.5 -62.5t153 -69l-172 -330l-35 21 q-35 20 -92.5 45.5t-125 46t-132.5 20.5q-51 0 -84 -16.5t-33 -55.5q0 -37 32.5 -59.5t93 -40.5t144.5 -45q135 -41 233.5 -94t151.5 -136t53 -221q0 -131 -47 -220t-127 -142t-178 -76.5t-201 -23.5q-104 0 -217.5 21.5t-220 59t-194.5 89.5z" />
<glyph unicode="T" horiz-adv-x="1277" d="M20 1106v348h1237v-348h-417v-1106h-400v1106h-420z" />
<glyph unicode="U" horiz-adv-x="1521" d="M104 707v747h400v-747q0 -72 14 -137.5t45 -117t79 -81t118 -29.5q72 0 121 29.5t78.5 82t44 118t14.5 135.5v747h399v-747q0 -152 -40 -283t-119.5 -229.5t-203.5 -152.5t-294 -54q-174 0 -299 57t-204 157.5t-116 230.5t-37 274z" />
<glyph unicode="V" horiz-adv-x="1376" d="M-16 1454h422l284 -993l281 993h420l-502 -1454h-397z" />
<glyph unicode="W" horiz-adv-x="2164" d="M-25 1454h433l315 -991l100 297l-241 694h366l133 -448l136 448h366l-246 -694l105 -297l313 991h434l-549 -1454h-346l-213 520l-211 -520h-346z" />
<glyph unicode="X" horiz-adv-x="1345" d="M-23 1454h433l264 -459l264 459h430l-457 -737l441 -717h-430l-248 438l-248 -438h-432l440 717z" />
<glyph unicode="Y" horiz-adv-x="1363" d="M-12 1454h432l260 -594l266 594h434l-501 -973v-481h-398v485z" />
<glyph unicode="Z" horiz-adv-x="1273" d="M55 0v297l660 809h-629v348h1110v-297l-618 -809h630v-348h-1153z" />
<glyph unicode="[" horiz-adv-x="759" d="M162 -82v1598h502v-308h-144v-983h144v-307h-502z" />
<glyph unicode="\" horiz-adv-x="1421" d="M51 1454h430l891 -1454h-428z" />
<glyph unicode="]" horiz-adv-x="759" d="M96 -82v307h144v983h-144v308h502v-1598h-502z" />
<glyph unicode="^" horiz-adv-x="1280" d="M74 621l405 833h324l403 -833h-313l-252 518l-258 -518h-309z" />
<glyph unicode="_" horiz-adv-x="903" d="M90 0h723v-348h-723v348z" />
<glyph unicode="`" horiz-adv-x="581" d="M92 1495h346l103 -291l-246 -65z" />
<glyph unicode="a" d="M39 326q0 109 59.5 191.5t165 129.5t240.5 47q63 0 119.5 -10t97.5 -31v33q0 76 -44 113t-142 37q-90 0 -169 -30t-165 -87l-113 242q109 70 228.5 103.5t256.5 33.5q256 0 396.5 -116t140.5 -343v-209q0 -55 16.5 -76.5t57.5 -25.5v-328q-47 -10 -89 -15t-75 -5 q-104 0 -158.5 37.5t-70.5 111.5l-9 39q-72 -92 -166 -140t-200 -48t-192.5 45t-135.5 124t-49 177zM406 360q0 -29 16 -52t45 -36.5t65 -13.5q35 0 73 11.5t65 29.5q23 16 37 35.5t14 40.5v80q-33 12 -75 20t-75 8q-70 0 -117.5 -34.5t-47.5 -88.5z" />
<glyph unicode="b" horiz-adv-x="1325" d="M98 0v1495h389v-577q47 88 133.5 134t202.5 46q98 0 182.5 -42t146.5 -118t97 -179.5t35 -223.5q0 -119 -38 -220.5t-104.5 -177.5t-157.5 -116.5t-200 -40.5q-121 0 -209 48t-139 140v-168h-338zM487 418q18 -27 40 -48.5t44.5 -34.5t48 -20.5t52.5 -7.5q47 0 86 16.5 t67.5 46t44 70.5t15.5 92q0 66 -25.5 120.5t-70 86t-101.5 31.5q-41 0 -80 -20.5t-70.5 -56.5t-50.5 -83v-192z" />
<glyph unicode="c" horiz-adv-x="1181" d="M39 539q0 147 68.5 275t200.5 206t323 78q195 0 328 -82t198 -211l-379 -115q-27 39 -64.5 59.5t-84.5 20.5q-53 0 -96.5 -27.5t-69 -79t-25.5 -124.5q0 -72 25.5 -124.5t68.5 -80t97 -27.5q33 0 59.5 9.5t50 27.5t39.5 43l379 -115q-43 -86 -117.5 -151.5t-176 -103 t-232.5 -37.5q-143 0 -253 45t-185.5 123.5t-114.5 179t-39 211.5z" />
<glyph unicode="d" horiz-adv-x="1361" d="M41 541q0 160 60.5 285.5t167 198.5t243.5 73q104 0 192.5 -48.5t133.5 -131.5v577h389v-1065q0 -55 16.5 -76.5t56.5 -25.5v-328q-100 -20 -163 -20q-98 0 -155.5 36.5t-74.5 112.5l-8 39q-55 -98 -149.5 -143t-200.5 -45q-111 0 -204 40.5t-161.5 115.5t-105.5 178.5 t-37 226.5zM442 532q0 -51 15.5 -92t44 -70.5t67.5 -46t86 -16.5q29 0 53.5 7.5t47 20.5t44.5 34.5t40 48.5v192q-18 47 -50 83t-71 56.5t-80 20.5q-43 0 -79 -18.5t-62.5 -51t-41 -75.5t-14.5 -93z" />
<glyph unicode="e" horiz-adv-x="1247" d="M39 524q0 156 67.5 286t198.5 209t324 79t323.5 -78t198.5 -205t68 -276q0 -31 -3.5 -63t-7.5 -56h-755q4 -57 31.5 -93t69.5 -52.5t87 -16.5q63 0 119.5 28.5t75.5 80.5l329 -95q-43 -86 -119.5 -151.5t-181 -103t-235.5 -37.5q-141 0 -252 44t-185.5 119.5t-113.5 174 t-39 206.5zM444 653h357q-6 53 -29.5 90t-61.5 57.5t-87 20.5t-87 -20.5t-62 -57.5t-30 -90z" />
<glyph unicode="f" horiz-adv-x="823" d="M41 659v293h133v117q0 135 49 235.5t138.5 156t207.5 55.5q70 0 143.5 -15.5t155.5 -46.5l-65 -295q-33 12 -74 20.5t-72 8.5q-47 0 -70.5 -25.5t-23.5 -79.5v-131h236v-293h-236v-659h-389v659h-133z" />
<glyph unicode="g" horiz-adv-x="1325" d="M43 541q0 121 37 222t103.5 177t158.5 117t203 41q115 0 204 -46t140 -134v159h338v-979q0 -168 -82 -292.5t-229.5 -193.5t-344.5 -69q-170 0 -298 53.5t-226 153.5l205 213q59 -55 142 -93t177 -38q72 0 132.5 26.5t97.5 85t37 154.5v70q-45 -84 -134.5 -126 t-191.5 -42q-104 0 -191.5 41t-148.5 114.5t-95 172t-34 213.5zM440 530q0 -49 15.5 -90t44 -70.5t67.5 -46t84 -16.5q29 0 54.5 7.5t48 20.5t44 34.5t40.5 48.5v192q-18 49 -51 85t-72 55.5t-80 19.5t-77 -18.5t-62.5 -52t-41 -76.5t-14.5 -93z" />
<glyph unicode="h" horiz-adv-x="1271" d="M98 0v1495h389v-577q57 88 150.5 134t206.5 46q115 0 182.5 -38t100 -97.5t44 -127t11.5 -126.5v-709h-389v606q0 80 -36 116t-89 36q-25 0 -61 -18.5t-68.5 -53.5t-51.5 -82v-604h-389z" />
<glyph unicode="i" horiz-adv-x="585" d="M98 0v1077h389v-1077h-389zM98 1167v328h389v-328h-389z" />
<glyph unicode="j" horiz-adv-x="593" d="M-231 -317l159 264q16 -18 43 -29.5t54 -11.5t44 10t27 30.5t10 47.5v1083h390v-1052q0 -133 -54.5 -235.5t-148.5 -160t-219 -57.5q-84 0 -163 28.5t-142 82.5zM106 1167v328h390v-328h-390z" />
<glyph unicode="k" horiz-adv-x="1191" d="M98 0v1495h389v-817l287 399h410l-371 -471l408 -606h-412l-244 393l-78 -86v-307h-389z" />
<glyph unicode="l" horiz-adv-x="727" d="M90 291v1204h389v-1067q0 -59 25.5 -91t75.5 -32q25 0 53.5 8.5t52.5 22.5l49 -287q-70 -33 -156.5 -51t-164.5 -18q-156 0 -240 80.5t-84 230.5z" />
<glyph unicode="m" horiz-adv-x="1925" d="M98 0v1077h351v-159q57 88 157.5 134t237.5 46q133 0 200.5 -57.5t90.5 -129.5q57 88 157.5 137.5t225.5 49.5q106 0 169.5 -39t95.5 -100.5t42 -128t10 -121.5v-709h-389v606q0 80 -32 116t-77 36t-98 -43t-78 -111v-604h-389v606q0 80 -31.5 116t-76.5 36t-98.5 -43 t-78.5 -111v-604h-389z" />
<glyph unicode="n" horiz-adv-x="1271" d="M98 0v1077h351v-159q39 59 98 99t137 60.5t170 20.5q111 0 176.5 -39t98 -100.5t43 -128t10.5 -121.5v-709h-389v606q0 80 -36 116t-83 36q-33 0 -70 -19.5t-67.5 -54.5t-49.5 -80v-604h-389z" />
<glyph unicode="o" horiz-adv-x="1257" d="M39 539q0 111 38 212t112.5 179t185 123t254.5 45q145 0 254.5 -45t184.5 -123t113 -179.5t38 -211.5q0 -111 -38 -211.5t-113 -179t-184.5 -123.5t-254.5 -45q-143 0 -254 45t-185.5 123.5t-112.5 179t-38 211.5zM438 539q0 -72 24.5 -124.5t67.5 -80t99 -27.5 q55 0 98 27.5t67.5 80t24.5 124.5t-24.5 124t-67.5 79.5t-98 27.5t-98.5 -27.5t-68 -79.5t-24.5 -124z" />
<glyph unicode="p" horiz-adv-x="1325" d="M98 -436v1513h338v-162q57 88 142.5 135.5t205.5 47.5q109 0 199 -41t157.5 -117t104.5 -176t37 -221q0 -162 -59.5 -289t-163 -200.5t-236.5 -73.5q-117 0 -202.5 46t-133.5 134v-596h-389zM487 473q18 -47 50 -85t71 -59.5t80 -21.5q43 0 79 18.5t62.5 51.5t41 76 t14.5 92q0 51 -15.5 92t-44 70.5t-67.5 46t-86 16.5q-27 0 -52.5 -7t-48 -20.5t-44 -34t-40.5 -49.5v-186z" />
<glyph unicode="q" horiz-adv-x="1325" d="M43 543q0 121 37 221t104.5 176t158.5 117t198 41q121 0 205.5 -49.5t142.5 -137.5v166h338v-1515h-389v598q-94 -180 -336 -180q-98 0 -182 41.5t-146.5 117.5t-96.5 179.5t-34 224.5zM440 532q0 -68 27 -117.5t75 -78.5t111 -29q37 0 70 12.5t61.5 37t53.5 61.5v192 q-14 35 -36 65t-48.5 51.5t-56 32.5t-60.5 11q-43 0 -79 -18.5t-62.5 -51t-41 -75.5t-14.5 -93z" />
<glyph unicode="r" horiz-adv-x="851" d="M98 0v1077h357v-205q57 109 143 167.5t182 58.5h32t17 -2v-351q-113 0 -205 -24.5t-137 -81.5v-639h-389z" />
<glyph unicode="s" horiz-adv-x="1026" d="M23 160l133 239q100 -66 193 -102.5t169 -36.5q43 0 63.5 11.5t20.5 37.5q0 18 -14.5 30.5t-46 25t-80.5 26.5q-127 45 -212 84t-127 95.5t-42 150.5q0 111 55 195.5t158.5 134t249.5 49.5q109 0 218 -34t212 -122l-148 -237q-102 63 -172.5 89.5t-126.5 26.5 q-27 0 -46 -6t-29.5 -18.5t-10.5 -32.5t14.5 -33.5t45 -25t78.5 -25.5q139 -41 227 -83t130 -101.5t42 -155.5q0 -170 -120 -266t-327 -96q-141 0 -277 46t-230 134z" />
<glyph unicode="t" horiz-adv-x="866" d="M39 784v293h133v338h389v-338h211v-293h-211v-356q0 -53 22.5 -74.5t61.5 -21.5q29 0 66 10t73 25l70 -308q-53 -23 -113.5 -42t-123 -29.5t-121.5 -10.5q-88 0 -162 30t-118 98.5t-44 185.5v493h-133z" />
<glyph unicode="u" horiz-adv-x="1306" d="M88 369v708h389v-620q0 -70 32 -110t87 -40q31 0 61.5 8.5t62.5 33t62 69.5v659h389v-647q0 -55 16.5 -76.5t57.5 -25.5v-328q-51 -10 -92 -15t-72 -5q-98 0 -155.5 36.5t-73.5 112.5l-8 39q-76 -100 -181.5 -144t-238.5 -44q-162 0 -249 100.5t-87 288.5z" />
<glyph unicode="v" horiz-adv-x="1153" d="M2 1077h399l193 -731l194 731h363l-363 -1077h-423z" />
<glyph unicode="w" horiz-adv-x="1765" d="M-20 1077h366l256 -712l72 241l-197 471h314l92 -315l92 315h313l-196 -471l71 -241l256 712h367l-440 -1077h-318l-145 410l-146 -410h-317z" />
<glyph unicode="x" horiz-adv-x="1134" d="M-12 0l356 535l-346 542h395l154 -264l20 -43l21 43l153 264h396l-346 -532l356 -545h-395l-166 264l-19 41l-18 -41l-166 -264h-395z" />
<glyph unicode="y" horiz-adv-x="1136" d="M-4 1077h399l205 -678l166 678h362l-364 -1206q-31 -104 -100.5 -183t-166 -123t-206.5 -44q-51 0 -101.5 9t-99.5 30v331q47 -16 87 -25t73 -9q43 0 71.5 15t45 48t20.5 80z" />
<glyph unicode="z" horiz-adv-x="1011" d="M45 0v229l492 582h-461v266h866v-229l-489 -582h508v-266h-916z" />
<glyph unicode="{" horiz-adv-x="765" d="M72 606v266q29 0 57.5 23t47 58.5t18.5 72.5v428q0 37 17 49.5t30 12.5h413v-308h-112v-315q0 -57 -25.5 -92t-58.5 -64q31 -27 57.5 -63.5t26.5 -91.5v-338h112v-307h-413q-12 0 -29.5 11t-17.5 50v451q0 66 -40 107.5t-83 49.5z" />
<glyph unicode="|" horiz-adv-x="638" d="M156 -266v1853h327v-1853h-327z" />
<glyph unicode="}" horiz-adv-x="765" d="M111 -63v307h112v338q0 55 26.5 92t57.5 63q-33 29 -58.5 64t-25.5 92v315h-112v308h413q12 0 29.5 -12.5t17.5 -49.5v-428q0 -37 18.5 -72.5t47.5 -58.5t57 -23v-266q-43 -8 -83 -50t-40 -107v-451q0 -39 -17 -50t-30 -11h-413z" />
<glyph unicode="~" horiz-adv-x="1249" d="M92 442q0 25 16.5 78t55.5 109.5t104.5 96.5t163.5 40q84 0 146.5 -25.5t120 -52t120.5 -26.5q61 0 92 24.5t40.5 50t9.5 29.5h204q0 -16 -17.5 -67.5t-57 -111t-106 -102.5t-167.5 -43q-78 0 -141.5 25t-121.5 49.5t-124 24.5q-63 0 -91 -23.5t-34 -48.5t-6 -27h-207z " />
<glyph unicode="&#xa1;" horiz-adv-x="737" d="M174 -14v854h389v-854h-389zM174 1077v377h389v-377h-389z" />
<glyph unicode="&#xa2;" horiz-adv-x="1265" d="M74 528q0 139 54 256t163.5 199t273.5 111v227h164v-227q135 -4 262 -75t203 -214l-379 -115q-14 25 -38.5 44.5t-47.5 23.5v-441q23 10 38 20.5t27.5 24t20.5 25.5l379 -115q-45 -98 -130 -162.5t-176 -97t-159 -32.5v-226h-164v228q-106 8 -196 57t-157 127t-102.5 171 t-35.5 191zM475 528q0 -37 10.5 -72.5t30 -66.5t49.5 -53v403q-20 -12 -36.5 -31.5t-29 -47t-18.5 -61.5t-6 -71z" />
<glyph unicode="&#xa3;" horiz-adv-x="1200" d="M100 256q53 33 96.5 87t68 119.5t24.5 129.5q0 61 -20.5 121.5t-48 122t-48 124t-20.5 127.5q0 106 62 191.5t167.5 135.5t234.5 50q135 0 259 -56t212 -159l-196 -239q-51 59 -131 100t-146 41q-37 0 -63.5 -13.5t-40.5 -37t-14 -56.5q0 -43 18 -89t44 -99t44.5 -114.5 t18.5 -133.5q0 -55 -14.5 -107t-46.5 -101.5t-81 -100.5q49 16 88 23.5t72 7.5q43 0 88 -7.5t90 -15.5t88 -8q35 0 63.5 6t65.5 21l94 -287q-45 -31 -113.5 -50.5t-129.5 -19.5q-63 0 -132 17.5t-139.5 34t-140.5 16.5q-57 0 -137 -15.5t-158 -39.5zM125 508v287h846v-287 h-846z" />
<glyph unicode="&#xa4;" horiz-adv-x="1165" d="M88 342l135 135q-59 96 -59 215q0 57 14.5 111.5t42.5 99.5l-133 135l145 146l142 -146q45 23 97 34t114 11q59 0 110.5 -11t94.5 -30l139 142l145 -146l-129 -129q29 -47 45.5 -102t16.5 -115q0 -59 -16.5 -115.5t-47.5 -103.5l131 -131l-135 -135l-145 137 q-43 -20 -95.5 -31.5t-113.5 -11.5q-63 0 -116.5 12.5t-98.5 32.5l-148 -139zM436 692q0 -49 19.5 -86t53.5 -56.5t77 -19.5q45 0 77.5 19.5t52 56.5t19.5 86q0 51 -19.5 87t-52 55.5t-77.5 19.5q-43 0 -77 -19.5t-53.5 -55.5t-19.5 -87z" />
<glyph unicode="&#xa5;" horiz-adv-x="1519" d="M61 1454h433l260 -629l266 629h434l-295 -569h131v-246h-258l-80 -158v-67h340v-246h-340v-168h-397v168h-338v246h338v71l-78 154h-258v246h133z" />
<glyph unicode="&#xa6;" horiz-adv-x="647" d="M160 -266v786h327v-786h-327zM160 801v786h327v-786h-327z" />
<glyph unicode="&#xa7;" horiz-adv-x="1128" d="M78 1044q0 106 58.5 201.5t162.5 157t240 61.5q98 0 176 -31.5t136 -79.5t100 -99.5t69 -90.5l-297 -139q-14 25 -35.5 47.5t-51.5 35.5t-73 13q-35 0 -55.5 -9t-28.5 -24.5t-8 -35.5q0 -39 27.5 -48.5t60.5 -11.5q78 -2 160 -21.5t151.5 -61.5t112.5 -110.5t43 -170.5 q0 -57 -11.5 -98.5t-15.5 -53.5q18 -27 35 -77t17 -128q0 -127 -48.5 -213t-124 -138t-160.5 -75.5t-159 -23.5q-88 0 -165 25.5t-138 64.5t-104 79t-64 66l248 238q53 -57 104.5 -81t100.5 -24q31 0 54 7.5t36.5 22.5t13.5 38t-12 33t-31.5 14t-38.5 4q-152 12 -250 66.5 t-146 138.5t-48 186q0 61 11 90t13 43q-14 23 -39.5 79.5t-25.5 133.5zM496 643q0 -23 10 -36t27.5 -19t37 -9.5t38 -5.5t30.5 -6q10 8 14 21.5t4 25.5q0 27 -13 41.5t-32.5 20.5t-36.5 6q-20 0 -41 4l-20 4q-8 -6 -13 -18.5t-5 -28.5z" />
<glyph unicode="&#xa8;" horiz-adv-x="1159" d="M184 1188v287h320v-287h-320zM655 1188v287h320v-287h-320z" />
<glyph unicode="&#xa9;" horiz-adv-x="1734" d="M78 727q0 158 58.5 293t164 234.5t247.5 154.5t310 55q172 0 318.5 -55t255 -154.5t168 -234.5t59.5 -293q0 -160 -59.5 -295t-168 -235.5t-255 -155.5t-318.5 -55q-168 0 -310 55t-247.5 155.5t-164 235.5t-58.5 295zM221 727q0 -127 48 -237.5t134 -194.5t202 -131 t253 -47q139 0 258 44t209 126t140.5 193.5t50.5 246.5q0 127 -49.5 236.5t-138.5 192.5t-209 130t-261 47q-135 0 -252 -47t-203 -130t-134 -192.5t-48 -236.5zM348 725q0 96 35 182t101.5 152.5t166 105.5t228.5 39q180 0 303 -78.5t182 -203.5l-365 -111q-14 25 -32.5 42 t-41 26.5t-48.5 9.5q-31 0 -56.5 -11.5t-46 -32t-32 -51t-11.5 -69.5t11.5 -69.5t32 -51t46 -32t56.5 -11.5q27 0 49 9.5t40.5 26.5t32.5 42l365 -111q-39 -82 -107.5 -146.5t-162.5 -100t-215 -35.5q-129 0 -228.5 39t-166 105.5t-101.5 153.5t-35 181z" />
<glyph unicode="&#xaa;" horiz-adv-x="923" d="M68 924q0 115 86 186.5t221 71.5q86 0 139 -29v23q0 53 -26.5 79.5t-92.5 26.5q-59 0 -110.5 -20.5t-108.5 -61.5l-78 168q141 96 324 96q172 0 265 -80.5t93 -240.5v-146q0 -39 14.5 -54t49.5 -17v-230q-35 -8 -68 -11t-57 -3q-70 0 -108 26.5t-48 77.5l-6 29 q-47 -66 -108.5 -99.5t-131.5 -33.5q-106 0 -177.5 68.5t-71.5 173.5zM317 948q0 -31 23.5 -51t56.5 -20q20 0 44 8t40 20q33 23 33 53v56q-20 10 -46 15t-46 5q-45 0 -75 -24.5t-30 -61.5z" />
<glyph unicode="&#xab;" horiz-adv-x="1460" d="M61 430v180l568 406v-311l-262 -175l262 -157v-312zM780 430v180l568 406v-311l-263 -175l263 -157v-312z" />
<glyph unicode="&#xac;" horiz-adv-x="1304" d="M100 535v348h1084v-701h-328v353h-756z" />
<glyph unicode="&#xad;" horiz-adv-x="1288" d="M102 391v348h1084v-348h-1084z" />
<glyph unicode="&#xae;" horiz-adv-x="1734" d="M78 727q0 158 58.5 293t164 234.5t248.5 154.5t313 55t315.5 -55t253 -154.5t168 -234.5t60.5 -293q0 -160 -60.5 -295t-168 -235.5t-253 -155.5t-315.5 -55t-313 55t-248.5 155.5t-164 235.5t-58.5 295zM229 725q0 -127 46.5 -237.5t131.5 -194.5t201.5 -131t255.5 -47 q182 0 327.5 78.5t230.5 216t85 311.5q0 129 -48 239.5t-134 194.5t-203.5 131t-257.5 47q-139 0 -255.5 -47t-201.5 -130t-131.5 -193.5t-46.5 -237.5zM514 295v876h408q86 0 153.5 -46t105.5 -115.5t38 -145.5q0 -47 -16.5 -94t-44.5 -86t-66 -68l196 -321h-301l-166 268 h-37v-268h-270zM784 780h109q23 0 41 16.5t18 67.5q0 55 -20.5 69.5t-42.5 14.5h-105v-168z" />
<glyph unicode="&#xaf;" horiz-adv-x="897" d="M131 1243v232h635v-232h-635z" />
<glyph unicode="&#xb0;" horiz-adv-x="614" d="M63 1249q0 100 69 167t175 67q109 0 176.5 -66.5t67.5 -167.5q0 -117 -67.5 -185.5t-176.5 -68.5q-106 0 -175 70.5t-69 183.5zM242 1239q0 -27 18 -45q20 -20 47 -20q29 0 45 20q10 8 14.5 21.5t4.5 23.5q0 14 -4.5 25.5t-14.5 19.5q-8 10 -20.5 14.5t-24.5 4.5 q-29 -1 -47 -19t-18 -45z" />
<glyph unicode="&#xb1;" horiz-adv-x="983" d="M100 2v307h779v-307h-779zM102 639v307h215v236h349v-236h215v-307h-215v-236h-349v236h-215z" />
<glyph unicode="&#xb2;" horiz-adv-x="903" d="M53 770q0 109 22.5 181.5t81 127t169.5 105.5q59 29 122.5 54.5t106.5 59t43 82.5t-44 76t-110 27q-53 0 -100 -16.5t-84 -41t-63 -51.5l-140 164q31 41 92.5 74t144.5 51t175 18q182 0 278.5 -74.5t96.5 -207.5q0 -74 -25.5 -126t-65.5 -88t-84 -57.5t-81 -31.5 q-45 -12 -83 -26.5t-59.5 -33t-21.5 -47.5h422v-219h-793z" />
<glyph unicode="&#xb3;" horiz-adv-x="864" d="M43 1567q37 39 100.5 63.5t138 37.5t142.5 13q111 0 191.5 -31.5t124.5 -88t44 -127.5q0 -70 -43 -119t-116 -64q84 -14 132 -80.5t48 -152.5q0 -96 -55.5 -153.5t-144.5 -83t-191 -25.5q-123 0 -224.5 34.5t-142.5 110.5l113 152q31 -25 64.5 -43.5t76.5 -28.5t98 -10 q63 0 110.5 18.5t47.5 69.5q0 43 -47 62.5t-174 19.5h-51v196h49q109 0 150.5 17.5t41.5 56.5q0 47 -43 60.5t-82 13.5q-80 0 -135 -26.5t-92 -59.5z" />
<glyph unicode="&#xb4;" horiz-adv-x="581" d="M92 1204l103 291h346l-203 -356z" />
<glyph unicode="&#xb5;" horiz-adv-x="1449" d="M154 -436v1513h389v-620q0 -70 31.5 -110t95.5 -40q25 0 54.5 8.5t61 33t62.5 69.5v659h389v-647q0 -55 20.5 -76.5t73.5 -25.5v-328q-57 -10 -103 -15t-81 -5q-98 0 -155.5 36.5t-73.5 112.5l-9 39q-10 -29 -51 -74t-97 -79.5t-116 -34.5q-43 0 -71.5 17t-42 35.5 t-13.5 20.5l25 -489h-389z" />
<glyph unicode="&#xb6;" horiz-adv-x="1443" d="M70 911q0 260 151.5 401.5t425.5 141.5h699v-287h-144v-1331h-328v549h-63v-549h-328v549q-123 0 -216 66.5t-145 185t-52 274.5zM391 922q0 -68 12.5 -122.5t33 -88t46.5 -39.5v495q-39 -8 -65.5 -76.5t-26.5 -168.5zM811 672h63v495h-63v-495z" />
<glyph unicode="&#xb7;" horiz-adv-x="520" d="M102 487v377h316v-377h-316z" />
<glyph unicode="&#xb8;" horiz-adv-x="741" d="M47 -381l90 199q23 -20 49.5 -29.5t49.5 -9.5q37 0 61.5 20.5t24.5 59.5q0 35 -23 70.5t-63 70.5l122 74q78 -57 134.5 -127t56.5 -166q0 -90 -60.5 -161t-187.5 -71q-57 0 -122.5 17.5t-131.5 52.5z" />
<glyph unicode="&#xb9;" horiz-adv-x="657" d="M61 1337v224q43 0 86 29.5t74 59t31 31.5h225v-688h137v-219h-518v219h156v453q-14 -18 -47 -44t-72 -45.5t-72 -19.5z" />
<glyph unicode="&#xba;" horiz-adv-x="897" d="M57 1073q0 104 44 193.5t132.5 143.5t215.5 54q129 0 216 -54t131 -143t44 -194q0 -102 -44 -192t-131 -144.5t-216 -54.5q-127 0 -215.5 54.5t-132.5 144.5t-44 192zM330 1073q0 -49 15 -86t42 -56.5t62 -19.5t61.5 19.5t41.5 56.5t15 86q0 51 -15 87t-42 55.5t-61 19.5 q-35 0 -62 -19.5t-42 -55.5t-15 -87z" />
<glyph unicode="&#xbb;" horiz-adv-x="1460" d="M113 61v312l262 157l-262 175v311l567 -406v-180zM831 61v312l263 157l-263 175v311l568 -406v-180z" />
<glyph unicode="&#xbc;" horiz-adv-x="1951" d="M61 1153v223q43 0 86 30t74 59.5t31 31.5h225v-688h137v-219h-518v219h156v453q-14 -18 -47 -44t-72 -45.5t-72 -19.5zM270 133l580 653l514 691l170 -154l-555 -633l-539 -710zM1108 193v198l510 512h172v-534h110v-176h-110v-191h-262v191h-420zM1315 369h221v229z" />
<glyph unicode="&#xbd;" horiz-adv-x="2066" d="M61 1153v223q43 0 86 30t74 59.5t31 31.5h225v-688h137v-219h-518v219h156v453q-14 -18 -47 -44t-72 -45.5t-72 -19.5zM270 133l580 653l514 691l170 -154l-555 -633l-539 -710zM1202 0q0 109 22.5 181.5t81 126.5t169.5 106q59 29 122.5 54.5t106.5 59t43 82.5t-44 76 t-110 27q-53 0 -100 -16.5t-84 -41t-63 -51.5l-140 164q31 41 92.5 73.5t144.5 51t175 18.5q182 0 278.5 -74.5t96.5 -207.5q0 -74 -25.5 -126t-65.5 -88t-84 -57.5t-81 -31.5q-45 -12 -83 -26.5t-59.5 -33t-21.5 -47.5h422v-219h-793z" />
<glyph unicode="&#xbe;" horiz-adv-x="2158" d="M43 1382q37 39 100.5 63.5t138 38t142.5 13.5q111 0 191.5 -31.5t124.5 -88t44 -128.5q0 -70 -43 -119t-116 -63q84 -14 132 -80.5t48 -152.5q0 -96 -55.5 -153.5t-144.5 -83.5t-191 -26q-123 0 -224.5 35t-142.5 111l113 151q31 -25 64.5 -43t76.5 -28.5t98 -10.5 q63 0 110.5 18.5t47.5 69.5q0 43 -47 62.5t-174 19.5h-51v197h49q109 0 150.5 17.5t41.5 56.5q0 47 -43 60t-82 13q-80 0 -135 -26.5t-92 -59.5zM477 133l580 653l514 691l170 -154l-555 -633l-539 -710zM1315 193v198l510 512h172v-534h110v-176h-110v-191h-262v191h-420z M1522 369h221v229z" />
<glyph unicode="&#xbf;" horiz-adv-x="997" d="M57 -18q0 49 8.5 94t28 85t51 75.5t76.5 66.5q59 41 122 69.5t106 58.5t43 75h317q0 -57 -9 -111.5t-43 -102.5t-110 -87q-23 -12 -64.5 -32.5t-84.5 -49.5t-73 -64.5t-30 -78.5q0 -31 17.5 -53.5t45 -36t60.5 -13.5q49 0 81 23.5t52.5 54.5t34.5 49l248 -176 q-35 -82 -98.5 -141.5t-148.5 -91t-183 -31.5q-78 0 -157 22.5t-144.5 71.5t-105.5 129t-40 195zM485 700v336h318v-336h-318z" />
<glyph unicode="&#xc0;" horiz-adv-x="1366" d="M-4 0l465 1454h446l463 -1454h-405l-88 285h-388l-86 -285h-407zM377 1872h346l103 -291l-246 -65zM549 551h264l-129 512z" />
<glyph unicode="&#xc1;" horiz-adv-x="1366" d="M-4 0l465 1454h446l463 -1454h-405l-88 285h-388l-86 -285h-407zM549 551h264l-129 512zM561 1581l103 291h346l-203 -356z" />
<glyph unicode="&#xc2;" horiz-adv-x="1366" d="M-4 0l465 1454h446l463 -1454h-405l-88 285h-388l-86 -285h-407zM313 1637l231 235h279l231 -235l-196 -86l-174 129l-174 -129zM549 551h264l-129 512z" />
<glyph unicode="&#xc3;" horiz-adv-x="1366" d="M-4 0l465 1454h446l463 -1454h-405l-88 285h-388l-86 -285h-407zM250 1548q0 27 15.5 80.5t50 109.5t89 95t130.5 39q68 0 110.5 -26.5t80.5 -52t85 -25.5q45 0 66.5 24.5t29 51t7.5 28.5h204q0 -18 -16 -69.5t-51 -110t-90.5 -101.5t-135.5 -43q-61 0 -106 25t-83 49.5 t-85 24.5q-45 0 -65.5 -23.5t-24.5 -48t-4 -27.5h-207zM549 551h264l-129 512z" />
<glyph unicode="&#xc4;" horiz-adv-x="1366" d="M-4 0l465 1454h446l463 -1454h-405l-88 285h-388l-86 -285h-407zM288 1567v287h320v-287h-320zM549 551h264l-129 512zM759 1567v287h320v-287h-320z" />
<glyph unicode="&#xc5;" horiz-adv-x="1366" d="M-4 0l465 1454h446l463 -1454h-405l-88 285h-388l-86 -285h-407zM444 1694q0 90 65.5 141t174.5 51t174 -51t65 -141q0 -88 -65.5 -140.5t-173.5 -52.5q-109 0 -174.5 52.5t-65.5 140.5zM549 551h264l-129 512zM602 1696q0 -31 23.5 -55.5t58.5 -24.5t58 24.5t23 55.5 q0 29 -23 52.5t-58 23.5t-58.5 -23.5t-23.5 -52.5z" />
<glyph unicode="&#xc6;" horiz-adv-x="1988" d="M-53 0l882 1454h1080v-348h-578v-193h467v-348h-467v-217h596v-348h-993v285h-412l-153 -285h-422zM690 633h213v381z" />
<glyph unicode="&#xc7;" horiz-adv-x="1415" d="M45 739q0 133 50 261t146.5 232.5t234.5 167t312 62.5q209 0 365 -87t231 -230l-305 -217q-27 72 -77 110.5t-108 54t-114 15.5q-86 0 -148.5 -34t-102.5 -89t-59 -122.5t-19 -135.5q0 -76 22.5 -145.5t65.5 -124t105.5 -85t139.5 -30.5q55 0 112.5 17.5t105 56.5 t71.5 104l326 -194q-43 -106 -143.5 -182t-227.5 -116t-252 -40q-162 0 -296 64.5t-231 172t-150.5 241.5t-53.5 273zM491 -381l90 199q23 -20 49.5 -29.5t49.5 -9.5q37 0 61.5 20.5t24.5 59.5q0 35 -23 70.5t-63 70.5l122 74q78 -57 134.5 -127t56.5 -166q0 -90 -60.5 -161 t-187.5 -71q-57 0 -122.5 17.5t-131.5 52.5z" />
<glyph unicode="&#xc8;" horiz-adv-x="1222" d="M125 0v1454h1018v-348h-619v-205h529v-323h-529v-230h637v-348h-1036zM340 1872h346l103 -291l-246 -65z" />
<glyph unicode="&#xc9;" horiz-adv-x="1222" d="M125 0v1454h1018v-348h-619v-205h529v-323h-529v-230h637v-348h-1036zM524 1581l103 291h346l-203 -356z" />
<glyph unicode="&#xca;" horiz-adv-x="1222" d="M125 0v1454h1018v-348h-619v-205h529v-323h-529v-230h637v-348h-1036zM277 1637l231 235h279l231 -235l-196 -86l-174 129l-174 -129z" />
<glyph unicode="&#xcb;" horiz-adv-x="1222" d="M125 0v1454h1018v-348h-619v-205h529v-323h-529v-230h637v-348h-1036zM252 1567v287h320v-287h-320zM723 1567v287h320v-287h-320z" />
<glyph unicode="&#xcc;" horiz-adv-x="649" d="M16 1872h346l103 -291l-246 -65zM125 0v1454h399v-1454h-399z" />
<glyph unicode="&#xcd;" horiz-adv-x="649" d="M125 0v1454h399v-1454h-399zM201 1581l103 291h346l-203 -356z" />
<glyph unicode="&#xce;" horiz-adv-x="649" d="M-47 1637l231 235h279l231 -235l-196 -86l-174 129l-174 -129zM125 0v1454h399v-1454h-399z" />
<glyph unicode="&#xcf;" horiz-adv-x="649" d="M-72 1567v287h320v-287h-320zM125 0v1454h399v-1454h-399zM399 1567v287h320v-287h-320z" />
<glyph unicode="&#xd0;" horiz-adv-x="1474" d="M57 588v286h709v-286h-709zM133 0v1454h559q242 0 405 -97t245.5 -262t82.5 -366q0 -221 -91 -385t-256 -254t-386 -90h-559zM532 348h160q104 0 177 49t112 136t39 196q0 113 -39 198t-112.5 132t-176.5 47h-160v-758z" />
<glyph unicode="&#xd1;" horiz-adv-x="1544" d="M125 0v1454h311l584 -739v739h399v-1454h-317l-578 715v-715h-399zM332 1546q0 27 15.5 80.5t50 109.5t89 95t130.5 39q68 0 110.5 -26.5t80.5 -52t85 -25.5q45 0 66.5 24.5t29 51t7.5 28.5h204q0 -18 -16 -69.5t-51 -110t-90.5 -101.5t-135.5 -43q-61 0 -106 25 t-83 49.5t-85 24.5q-45 0 -65.5 -23.5t-24.5 -48t-4 -27.5h-207z" />
<glyph unicode="&#xd2;" horiz-adv-x="1566" d="M45 729q0 145 55.5 276.5t154.5 234.5t235.5 162.5t297.5 59.5q166 0 301.5 -62.5t231.5 -169t148.5 -238.5t52.5 -271q0 -143 -54.5 -274.5t-154 -234.5t-234.5 -163.5t-299 -60.5q-166 0 -301 62.5t-232 168t-149.5 237.5t-52.5 273zM451 725q0 -74 20.5 -142.5 t61 -122.5t103 -86t148.5 -32t149.5 33t103.5 89t59.5 124.5t19.5 140.5q0 74 -20.5 141.5t-61.5 122t-104.5 85t-147.5 30.5q-86 0 -148.5 -33t-103.5 -87t-60 -122.5t-19 -140.5zM481 1872h346l103 -291l-246 -65z" />
<glyph unicode="&#xd3;" horiz-adv-x="1566" d="M45 729q0 145 55.5 276.5t154.5 234.5t235.5 162.5t297.5 59.5q166 0 301.5 -62.5t231.5 -169t148.5 -238.5t52.5 -271q0 -143 -54.5 -274.5t-154 -234.5t-234.5 -163.5t-299 -60.5q-166 0 -301 62.5t-232 168t-149.5 237.5t-52.5 273zM451 725q0 -74 20.5 -142.5 t61 -122.5t103 -86t148.5 -32t149.5 33t103.5 89t59.5 124.5t19.5 140.5q0 74 -20.5 141.5t-61.5 122t-104.5 85t-147.5 30.5q-86 0 -148.5 -33t-103.5 -87t-60 -122.5t-19 -140.5zM665 1581l103 291h346l-203 -356z" />
<glyph unicode="&#xd4;" horiz-adv-x="1566" d="M45 729q0 145 55.5 276.5t154.5 234.5t235.5 162.5t297.5 59.5q166 0 301.5 -62.5t231.5 -169t148.5 -238.5t52.5 -271q0 -143 -54.5 -274.5t-154 -234.5t-234.5 -163.5t-299 -60.5q-166 0 -301 62.5t-232 168t-149.5 237.5t-52.5 273zM418 1637l231 235h279l231 -235 l-196 -86l-174 129l-174 -129zM451 725q0 -74 20.5 -142.5t61 -122.5t103 -86t148.5 -32t149.5 33t103.5 89t59.5 124.5t19.5 140.5q0 74 -20.5 141.5t-61.5 122t-104.5 85t-147.5 30.5q-86 0 -148.5 -33t-103.5 -87t-60 -122.5t-19 -140.5z" />
<glyph unicode="&#xd5;" horiz-adv-x="1566" d="M45 729q0 145 55.5 276.5t154.5 234.5t235.5 162.5t297.5 59.5q166 0 301.5 -62.5t231.5 -169t148.5 -238.5t52.5 -271q0 -143 -54.5 -274.5t-154 -234.5t-234.5 -163.5t-299 -60.5q-166 0 -301 62.5t-232 168t-149.5 237.5t-52.5 273zM354 1548q0 27 15.5 80.5t50 109.5 t89 95t130.5 39q68 0 110.5 -26.5t80.5 -52t85 -25.5q45 0 66.5 24.5t29 51t7.5 28.5h204q0 -18 -16 -69.5t-51 -110t-90.5 -101.5t-135.5 -43q-61 0 -106 25t-83 49.5t-85 24.5q-45 0 -65.5 -23.5t-24.5 -48t-4 -27.5h-207zM451 725q0 -74 20.5 -142.5t61 -122.5t103 -86 t148.5 -32t149.5 33t103.5 89t59.5 124.5t19.5 140.5q0 74 -20.5 141.5t-61.5 122t-104.5 85t-147.5 30.5q-86 0 -148.5 -33t-103.5 -87t-60 -122.5t-19 -140.5z" />
<glyph unicode="&#xd6;" horiz-adv-x="1566" d="M45 729q0 145 55.5 276.5t154.5 234.5t235.5 162.5t297.5 59.5q166 0 301.5 -62.5t231.5 -169t148.5 -238.5t52.5 -271q0 -143 -54.5 -274.5t-154 -234.5t-234.5 -163.5t-299 -60.5q-166 0 -301 62.5t-232 168t-149.5 237.5t-52.5 273zM393 1567v287h320v-287h-320z M451 725q0 -74 20.5 -142.5t61 -122.5t103 -86t148.5 -32t149.5 33t103.5 89t59.5 124.5t19.5 140.5q0 74 -20.5 141.5t-61.5 122t-104.5 85t-147.5 30.5q-86 0 -148.5 -33t-103.5 -87t-60 -122.5t-19 -140.5zM864 1567v287h320v-287h-320z" />
<glyph unicode="&#xd7;" horiz-adv-x="1007" d="M84 391l176 176l-164 166l244 242l164 -164l164 164l239 -242l-164 -164l181 -178l-244 -241l-178 178l-178 -178z" />
<glyph unicode="&#xd8;" horiz-adv-x="1566" d="M41 0l1055 1454h430l-1057 -1454h-428zM45 729q0 145 55.5 276.5t154.5 234.5t235.5 162.5t297.5 59.5q166 0 301.5 -62.5t231.5 -169t148.5 -238.5t52.5 -271q0 -143 -54.5 -274.5t-154 -234.5t-234.5 -163.5t-299 -60.5q-166 0 -301 62.5t-232 168t-149.5 237.5 t-52.5 273zM451 725q0 -74 20.5 -142.5t61 -122.5t103 -86t148.5 -32t149.5 33t103.5 89t59.5 124.5t19.5 140.5q0 74 -20.5 141.5t-61.5 122t-104.5 85t-147.5 30.5q-86 0 -148.5 -33t-103.5 -87t-60 -122.5t-19 -140.5z" />
<glyph unicode="&#xd9;" horiz-adv-x="1521" d="M104 707v747h400v-747q0 -72 14 -137.5t45 -117t79 -81t118 -29.5q72 0 121 29.5t78.5 82t44 118t14.5 135.5v747h399v-747q0 -152 -40 -283t-119.5 -229.5t-203.5 -152.5t-294 -54q-174 0 -299 57t-204 157.5t-116 230.5t-37 274zM452 1872h346l103 -291l-246 -65z" />
<glyph unicode="&#xda;" horiz-adv-x="1521" d="M104 707v747h400v-747q0 -72 14 -137.5t45 -117t79 -81t118 -29.5q72 0 121 29.5t78.5 82t44 118t14.5 135.5v747h399v-747q0 -152 -40 -283t-119.5 -229.5t-203.5 -152.5t-294 -54q-174 0 -299 57t-204 157.5t-116 230.5t-37 274zM637 1581l103 291h346l-203 -356z" />
<glyph unicode="&#xdb;" horiz-adv-x="1521" d="M104 707v747h400v-747q0 -72 14 -137.5t45 -117t79 -81t118 -29.5q72 0 121 29.5t78.5 82t44 118t14.5 135.5v747h399v-747q0 -152 -40 -283t-119.5 -229.5t-203.5 -152.5t-294 -54q-174 0 -299 57t-204 157.5t-116 230.5t-37 274zM389 1637l231 235h279l231 -235 l-196 -86l-174 129l-174 -129z" />
<glyph unicode="&#xdc;" horiz-adv-x="1521" d="M104 707v747h400v-747q0 -72 14 -137.5t45 -117t79 -81t118 -29.5q72 0 121 29.5t78.5 82t44 118t14.5 135.5v747h399v-747q0 -152 -40 -283t-119.5 -229.5t-203.5 -152.5t-294 -54q-174 0 -299 57t-204 157.5t-116 230.5t-37 274zM364 1567v287h320v-287h-320zM835 1567 v287h320v-287h-320z" />
<glyph unicode="&#xdd;" horiz-adv-x="1363" d="M-12 1454h432l260 -594l266 594h434l-501 -973v-481h-398v485zM557 1581l103 291h346l-203 -356z" />
<glyph unicode="&#xde;" horiz-adv-x="1239" d="M125 0v1454h399v-242h197q106 0 196.5 -43t156 -114.5t101 -161.5t35.5 -182q0 -129 -60 -245t-168 -187.5t-251 -71.5h-207v-207h-399zM524 555h187q27 0 49 18.5t36.5 54.5t14.5 83q0 51 -17.5 84.5t-42 51t-51.5 17.5h-176v-309z" />
<glyph unicode="&#xdf;" horiz-adv-x="1153" d="M98 0v1083q0 109 65.5 195t177.5 135t249 49q121 0 215 -40t148.5 -116.5t54.5 -187.5q0 -68 -20.5 -127t-53.5 -102t-72 -64q115 -45 183.5 -143t68.5 -246q0 -133 -53 -220t-140 -137t-191.5 -70.5t-209.5 -20.5v356q76 0 130.5 36t54.5 105q0 49 -26 79t-58.5 43.5 t-57.5 13.5h-47v348h43q29 0 46.5 10t25.5 28.5t8 41.5q0 43 -21.5 61t-43 21.5t-23.5 3.5q-41 0 -59.5 -26t-21.5 -54.5t-3 -42.5v-1012h-369z" />
<glyph unicode="&#xe0;" d="M39 326q0 109 59.5 191.5t165 129.5t240.5 47q63 0 119.5 -10t97.5 -31v33q0 76 -44 113t-142 37q-90 0 -169 -30t-165 -87l-113 242q109 70 228.5 103.5t256.5 33.5q256 0 396.5 -116t140.5 -343v-209q0 -55 16.5 -76.5t57.5 -25.5v-328q-47 -10 -89 -15t-75 -5 q-104 0 -158.5 37.5t-70.5 111.5l-9 39q-72 -92 -166 -140t-200 -48t-192.5 45t-135.5 124t-49 177zM266 1495h346l103 -291l-246 -65zM406 360q0 -29 16 -52t45 -36.5t65 -13.5q35 0 73 11.5t65 29.5q23 16 37 35.5t14 40.5v80q-33 12 -75 20t-75 8q-70 0 -117.5 -34.5 t-47.5 -88.5z" />
<glyph unicode="&#xe1;" d="M39 326q0 109 59.5 191.5t165 129.5t240.5 47q63 0 119.5 -10t97.5 -31v33q0 76 -44 113t-142 37q-90 0 -169 -30t-165 -87l-113 242q109 70 228.5 103.5t256.5 33.5q256 0 396.5 -116t140.5 -343v-209q0 -55 16.5 -76.5t57.5 -25.5v-328q-47 -10 -89 -15t-75 -5 q-104 0 -158.5 37.5t-70.5 111.5l-9 39q-72 -92 -166 -140t-200 -48t-192.5 45t-135.5 124t-49 177zM406 360q0 -29 16 -52t45 -36.5t65 -13.5q35 0 73 11.5t65 29.5q23 16 37 35.5t14 40.5v80q-33 12 -75 20t-75 8q-70 0 -117.5 -34.5t-47.5 -88.5zM450 1204l103 291h346 l-203 -356z" />
<glyph unicode="&#xe2;" d="M39 326q0 109 59.5 191.5t165 129.5t240.5 47q63 0 119.5 -10t97.5 -31v33q0 76 -44 113t-142 37q-90 0 -169 -30t-165 -87l-113 242q109 70 228.5 103.5t256.5 33.5q256 0 396.5 -116t140.5 -343v-209q0 -55 16.5 -76.5t57.5 -25.5v-328q-47 -10 -89 -15t-75 -5 q-104 0 -158.5 37.5t-70.5 111.5l-9 39q-72 -92 -166 -140t-200 -48t-192.5 45t-135.5 124t-49 177zM203 1260l231 235h279l231 -235l-196 -86l-174 129l-174 -129zM406 360q0 -29 16 -52t45 -36.5t65 -13.5q35 0 73 11.5t65 29.5q23 16 37 35.5t14 40.5v80q-33 12 -75 20 t-75 8q-70 0 -117.5 -34.5t-47.5 -88.5z" />
<glyph unicode="&#xe3;" d="M39 326q0 109 59.5 191.5t165 129.5t240.5 47q63 0 119.5 -10t97.5 -31v33q0 76 -44 113t-142 37q-90 0 -169 -30t-165 -87l-113 242q109 70 228.5 103.5t256.5 33.5q256 0 396.5 -116t140.5 -343v-209q0 -55 16.5 -76.5t57.5 -25.5v-328q-47 -10 -89 -15t-75 -5 q-104 0 -158.5 37.5t-70.5 111.5l-9 39q-72 -92 -166 -140t-200 -48t-192.5 45t-135.5 124t-49 177zM139 1171q0 27 15.5 80.5t50 109.5t89 95t130.5 39q68 0 110.5 -26.5t80.5 -52t85 -25.5q45 0 66.5 24.5t29 51t7.5 28.5h204q0 -18 -16 -69.5t-51 -110t-90.5 -101.5 t-135.5 -43q-61 0 -106 25t-83 49.5t-85 24.5q-45 0 -65.5 -23.5t-24.5 -48t-4 -27.5h-207zM406 360q0 -29 16 -52t45 -36.5t65 -13.5q35 0 73 11.5t65 29.5q23 16 37 35.5t14 40.5v80q-33 12 -75 20t-75 8q-70 0 -117.5 -34.5t-47.5 -88.5z" />
<glyph unicode="&#xe4;" d="M39 326q0 109 59.5 191.5t165 129.5t240.5 47q63 0 119.5 -10t97.5 -31v33q0 76 -44 113t-142 37q-90 0 -169 -30t-165 -87l-113 242q109 70 228.5 103.5t256.5 33.5q256 0 396.5 -116t140.5 -343v-209q0 -55 16.5 -76.5t57.5 -25.5v-328q-47 -10 -89 -15t-75 -5 q-104 0 -158.5 37.5t-70.5 111.5l-9 39q-72 -92 -166 -140t-200 -48t-192.5 45t-135.5 124t-49 177zM178 1190v287h320v-287h-320zM406 360q0 -29 16 -52t45 -36.5t65 -13.5q35 0 73 11.5t65 29.5q23 16 37 35.5t14 40.5v80q-33 12 -75 20t-75 8q-70 0 -117.5 -34.5 t-47.5 -88.5zM649 1190v287h320v-287h-320z" />
<glyph unicode="&#xe5;" d="M39 326q0 109 59.5 191.5t165 129.5t240.5 47q63 0 119.5 -10t97.5 -31v33q0 76 -44 113t-142 37q-90 0 -169 -30t-165 -87l-113 242q109 70 228.5 103.5t256.5 33.5q256 0 396.5 -116t140.5 -343v-209q0 -55 16.5 -76.5t57.5 -25.5v-328q-47 -10 -89 -15t-75 -5 q-104 0 -158.5 37.5t-70.5 111.5l-9 39q-72 -92 -166 -140t-200 -48t-192.5 45t-135.5 124t-49 177zM334 1317q0 90 65.5 141t174.5 51t174 -51t65 -141q0 -88 -65.5 -140.5t-173.5 -52.5q-109 0 -174.5 52.5t-65.5 140.5zM406 360q0 -29 16 -52t45 -36.5t65 -13.5 q35 0 73 11.5t65 29.5q23 16 37 35.5t14 40.5v80q-33 12 -75 20t-75 8q-70 0 -117.5 -34.5t-47.5 -88.5zM492 1319q0 -31 23.5 -55.5t58.5 -24.5t58 24.5t23 55.5q0 29 -23 52.5t-58 23.5t-58.5 -23.5t-23.5 -52.5z" />
<glyph unicode="&#xe6;" horiz-adv-x="1929" d="M39 326q0 109 59.5 191.5t165 129.5t240.5 47q63 0 119.5 -10t97.5 -31v16.5v16.5q-2 76 -45 113t-141 37q-90 0 -169 -30t-165 -87l-113 242q213 137 485 137q121 0 215.5 -25.5t163.5 -77.5q70 47 159 75t200 28q193 0 323.5 -78t198.5 -205t68 -276q0 -31 -3.5 -63 t-7.5 -56h-755q4 -57 31.5 -93t69.5 -52.5t87 -16.5q63 0 119.5 28.5t75.5 80.5l329 -95q-43 -86 -119.5 -151.5t-181 -103t-235.5 -37.5q-162 0 -283 57t-194 151q-51 -74 -123 -119.5t-148.5 -67t-146.5 -21.5q-106 0 -192.5 45t-135.5 123.5t-49 177.5zM406 360 q0 -29 16 -52t44.5 -36.5t65.5 -13.5q35 0 73 11.5t65 29.5q51 35 51 76v39.5v40.5q-33 12 -75 20t-75 8q-70 0 -117.5 -34.5t-47.5 -88.5zM1126 653h357q-6 53 -29.5 90t-61.5 57.5t-87 20.5t-87 -20.5t-61.5 -57t-30.5 -90.5z" />
<glyph unicode="&#xe7;" horiz-adv-x="1181" d="M39 539q0 147 68.5 275t200.5 206t323 78q195 0 328 -82t198 -211l-379 -115q-27 39 -64.5 59.5t-84.5 20.5q-53 0 -96.5 -27.5t-69 -79t-25.5 -124.5q0 -72 25.5 -124.5t68.5 -80t97 -27.5q33 0 59.5 9.5t50 27.5t39.5 43l379 -115q-43 -86 -117.5 -151.5t-176 -103 t-232.5 -37.5q-143 0 -253 45t-185.5 123.5t-114.5 179t-39 211.5zM346 -381l90 199q23 -20 49.5 -29.5t49.5 -9.5q37 0 61.5 20.5t24.5 59.5q0 35 -23 70.5t-63 70.5l122 74q78 -57 134.5 -127t56.5 -166q0 -90 -60.5 -161t-187.5 -71q-57 0 -122.5 17.5t-131.5 52.5z" />
<glyph unicode="&#xe8;" horiz-adv-x="1247" d="M39 524q0 156 67.5 286t198.5 209t324 79t323.5 -78t198.5 -205t68 -276q0 -31 -3.5 -63t-7.5 -56h-755q4 -57 31.5 -93t69.5 -52.5t87 -16.5q63 0 119.5 28.5t75.5 80.5l329 -95q-43 -86 -119.5 -151.5t-181 -103t-235.5 -37.5q-141 0 -252 44t-185.5 119.5t-113.5 174 t-39 206.5zM321 1495h346l103 -291l-246 -65zM444 653h357q-6 53 -29.5 90t-61.5 57.5t-87 20.5t-87 -20.5t-62 -57.5t-30 -90z" />
<glyph unicode="&#xe9;" horiz-adv-x="1247" d="M39 524q0 156 67.5 286t198.5 209t324 79t323.5 -78t198.5 -205t68 -276q0 -31 -3.5 -63t-7.5 -56h-755q4 -57 31.5 -93t69.5 -52.5t87 -16.5q63 0 119.5 28.5t75.5 80.5l329 -95q-43 -86 -119.5 -151.5t-181 -103t-235.5 -37.5q-141 0 -252 44t-185.5 119.5t-113.5 174 t-39 206.5zM444 653h357q-6 53 -29.5 90t-61.5 57.5t-87 20.5t-87 -20.5t-62 -57.5t-30 -90zM506 1204l103 291h346l-203 -356z" />
<glyph unicode="&#xea;" horiz-adv-x="1247" d="M39 524q0 156 67.5 286t198.5 209t324 79t323.5 -78t198.5 -205t68 -276q0 -31 -3.5 -63t-7.5 -56h-755q4 -57 31.5 -93t69.5 -52.5t87 -16.5q63 0 119.5 28.5t75.5 80.5l329 -95q-43 -86 -119.5 -151.5t-181 -103t-235.5 -37.5q-141 0 -252 44t-185.5 119.5t-113.5 174 t-39 206.5zM258 1260l231 235h279l231 -235l-196 -86l-174 129l-174 -129zM444 653h357q-6 53 -29.5 90t-61.5 57.5t-87 20.5t-87 -20.5t-62 -57.5t-30 -90z" />
<glyph unicode="&#xeb;" horiz-adv-x="1247" d="M39 524q0 156 67.5 286t198.5 209t324 79t323.5 -78t198.5 -205t68 -276q0 -31 -3.5 -63t-7.5 -56h-755q4 -57 31.5 -93t69.5 -52.5t87 -16.5q63 0 119.5 28.5t75.5 80.5l329 -95q-43 -86 -119.5 -151.5t-181 -103t-235.5 -37.5q-141 0 -252 44t-185.5 119.5t-113.5 174 t-39 206.5zM233 1190v287h320v-287h-320zM444 653h357q-6 53 -29.5 90t-61.5 57.5t-87 20.5t-87 -20.5t-62 -57.5t-30 -90zM704 1190v287h320v-287h-320z" />
<glyph unicode="&#xec;" horiz-adv-x="585" d="M-14 1495h346l103 -291l-246 -65zM98 0v1077h389v-1077h-389z" />
<glyph unicode="&#xed;" horiz-adv-x="585" d="M98 0v1077h389v-1077h-389zM170 1204l103 291h346l-203 -356z" />
<glyph unicode="&#xee;" horiz-adv-x="585" d="M-78 1260l231 235h279l231 -235l-196 -86l-174 129l-174 -129zM98 0v1077h389v-1077h-389z" />
<glyph unicode="&#xef;" horiz-adv-x="585" d="M-103 1190v287h320v-287h-320zM98 0v1077h389v-1077h-389zM368 1190v287h320v-287h-320z" />
<glyph unicode="&#xf0;" horiz-adv-x="1271" d="M45 479q0 102 37 190.5t103.5 155t155.5 103.5t191 37q82 0 159 -25t134 -70q-27 96 -76 182.5t-122.5 163t-175 146.5t-230.5 133h471q115 -49 212 -140t169 -213t112 -261.5t40 -284.5q0 -143 -40 -258t-117 -195t-186.5 -121.5t-246.5 -41.5q-172 0 -305 63t-209 177 t-76 259zM442 1190l217 108l111 29l252 131l106 -145l-241 -125l-119 -35l-219 -109zM444 481q0 -51 24 -91t67 -61.5t100 -21.5t100 21.5t66.5 61.5t23.5 91q0 53 -23.5 92t-66.5 60.5t-100 21.5t-100 -21.5t-67 -60.5t-24 -92z" />
<glyph unicode="&#xf1;" horiz-adv-x="1271" d="M98 0v1077h351v-159q39 59 98 99t137 60.5t170 20.5q111 0 176.5 -39t98 -100.5t43 -128t10.5 -121.5v-709h-389v606q0 80 -36 116t-83 36q-33 0 -70 -19.5t-67.5 -54.5t-49.5 -80v-604h-389zM248 1171q0 27 15.5 80.5t50 109.5t89 95t130.5 39q68 0 110.5 -26.5 t80.5 -52t85 -25.5q45 0 66.5 24.5t29 51t7.5 28.5h204q0 -18 -16 -69.5t-51 -110t-90.5 -101.5t-135.5 -43q-61 0 -106 25t-83 49.5t-85 24.5q-45 0 -65.5 -23.5t-24.5 -48t-4 -27.5h-207z" />
<glyph unicode="&#xf2;" horiz-adv-x="1257" d="M39 539q0 111 38 212t112.5 179t185 123t254.5 45q145 0 254.5 -45t184.5 -123t113 -179.5t38 -211.5q0 -111 -38 -211.5t-113 -179t-184.5 -123.5t-254.5 -45q-143 0 -254 45t-185.5 123.5t-112.5 179t-38 211.5zM321 1495h346l103 -291l-246 -65zM438 539 q0 -72 24.5 -124.5t67.5 -80t99 -27.5q55 0 98 27.5t67.5 80t24.5 124.5t-24.5 124t-67.5 79.5t-98 27.5t-98.5 -27.5t-68 -79.5t-24.5 -124z" />
<glyph unicode="&#xf3;" horiz-adv-x="1257" d="M39 539q0 111 38 212t112.5 179t185 123t254.5 45q145 0 254.5 -45t184.5 -123t113 -179.5t38 -211.5q0 -111 -38 -211.5t-113 -179t-184.5 -123.5t-254.5 -45q-143 0 -254 45t-185.5 123.5t-112.5 179t-38 211.5zM438 539q0 -72 24.5 -124.5t67.5 -80t99 -27.5 q55 0 98 27.5t67.5 80t24.5 124.5t-24.5 124t-67.5 79.5t-98 27.5t-98.5 -27.5t-68 -79.5t-24.5 -124zM506 1204l103 291h346l-203 -356z" />
<glyph unicode="&#xf4;" horiz-adv-x="1257" d="M39 539q0 111 38 212t112.5 179t185 123t254.5 45q145 0 254.5 -45t184.5 -123t113 -179.5t38 -211.5q0 -111 -38 -211.5t-113 -179t-184.5 -123.5t-254.5 -45q-143 0 -254 45t-185.5 123.5t-112.5 179t-38 211.5zM258 1260l231 235h279l231 -235l-196 -86l-174 129 l-174 -129zM438 539q0 -72 24.5 -124.5t67.5 -80t99 -27.5q55 0 98 27.5t67.5 80t24.5 124.5t-24.5 124t-67.5 79.5t-98 27.5t-98.5 -27.5t-68 -79.5t-24.5 -124z" />
<glyph unicode="&#xf5;" horiz-adv-x="1257" d="M39 539q0 111 38 212t112.5 179t185 123t254.5 45q145 0 254.5 -45t184.5 -123t113 -179.5t38 -211.5q0 -111 -38 -211.5t-113 -179t-184.5 -123.5t-254.5 -45q-143 0 -254 45t-185.5 123.5t-112.5 179t-38 211.5zM195 1171q0 27 15.5 80.5t50 109.5t89 95t130.5 39 q68 0 110.5 -26.5t80.5 -52t85 -25.5q45 0 66.5 24.5t29 51t7.5 28.5h204q0 -18 -16 -69.5t-51 -110t-90.5 -101.5t-135.5 -43q-61 0 -106 25t-83 49.5t-85 24.5q-45 0 -65.5 -23.5t-24.5 -48t-4 -27.5h-207zM438 539q0 -72 24.5 -124.5t67.5 -80t99 -27.5q55 0 98 27.5 t67.5 80t24.5 124.5t-24.5 124t-67.5 79.5t-98 27.5t-98.5 -27.5t-68 -79.5t-24.5 -124z" />
<glyph unicode="&#xf6;" horiz-adv-x="1257" d="M39 539q0 111 38 212t112.5 179t185 123t254.5 45q145 0 254.5 -45t184.5 -123t113 -179.5t38 -211.5q0 -111 -38 -211.5t-113 -179t-184.5 -123.5t-254.5 -45q-143 0 -254 45t-185.5 123.5t-112.5 179t-38 211.5zM233 1190v287h320v-287h-320zM438 539 q0 -72 24.5 -124.5t67.5 -80t99 -27.5q55 0 98 27.5t67.5 80t24.5 124.5t-24.5 124t-67.5 79.5t-98 27.5t-98.5 -27.5t-68 -79.5t-24.5 -124zM704 1190v287h320v-287h-320z" />
<glyph unicode="&#xf7;" horiz-adv-x="993" d="M84 481v307h827v-307h-827zM336 55v328h326v-328h-326zM336 891v328h326v-328h-326z" />
<glyph unicode="&#xf8;" horiz-adv-x="1257" d="M29 -12l276 336l127 -111l-199 -225h-204zM39 539q0 111 38 212t112.5 179t185 123t254.5 45q145 0 254.5 -45t184.5 -123t113 -179.5t38 -211.5q0 -111 -38 -211.5t-113 -179t-184.5 -123.5t-254.5 -45q-143 0 -254 45t-185.5 123.5t-112.5 179t-38 211.5zM356 346 l453 510l117 -76l-473 -532zM438 539q0 -72 24.5 -124.5t68 -80t98.5 -27.5t98 27.5t67.5 80t24.5 124.5t-24.5 124t-67.5 79.5t-98 27.5t-98.5 -27.5t-68 -80t-24.5 -123.5zM827 891l177 199h206l-233 -285z" />
<glyph unicode="&#xf9;" horiz-adv-x="1306" d="M88 369v708h389v-620q0 -70 32 -110t87 -40q31 0 61.5 8.5t62.5 33t62 69.5v659h389v-647q0 -55 16.5 -76.5t57.5 -25.5v-328q-51 -10 -92 -15t-72 -5q-98 0 -155.5 36.5t-73.5 112.5l-8 39q-76 -100 -181.5 -144t-238.5 -44q-162 0 -249 100.5t-87 288.5zM323 1495h346 l103 -291l-246 -65z" />
<glyph unicode="&#xfa;" horiz-adv-x="1306" d="M88 369v708h389v-620q0 -70 32 -110t87 -40q31 0 61.5 8.5t62.5 33t62 69.5v659h389v-647q0 -55 16.5 -76.5t57.5 -25.5v-328q-51 -10 -92 -15t-72 -5q-98 0 -155.5 36.5t-73.5 112.5l-8 39q-76 -100 -181.5 -144t-238.5 -44q-162 0 -249 100.5t-87 288.5zM508 1204 l103 291h346l-203 -356z" />
<glyph unicode="&#xfb;" horiz-adv-x="1306" d="M88 369v708h389v-620q0 -70 32 -110t87 -40q31 0 61.5 8.5t62.5 33t62 69.5v659h389v-647q0 -55 16.5 -76.5t57.5 -25.5v-328q-51 -10 -92 -15t-72 -5q-98 0 -155.5 36.5t-73.5 112.5l-8 39q-76 -100 -181.5 -144t-238.5 -44q-162 0 -249 100.5t-87 288.5zM260 1260 l231 235h279l231 -235l-196 -86l-174 129l-174 -129z" />
<glyph unicode="&#xfc;" horiz-adv-x="1306" d="M88 369v708h389v-620q0 -70 32 -110t87 -40q31 0 61.5 8.5t62.5 33t62 69.5v659h389v-647q0 -55 16.5 -76.5t57.5 -25.5v-328q-51 -10 -92 -15t-72 -5q-98 0 -155.5 36.5t-73.5 112.5l-8 39q-76 -100 -181.5 -144t-238.5 -44q-162 0 -249 100.5t-87 288.5zM235 1190v287 h320v-287h-320zM706 1190v287h320v-287h-320z" />
<glyph unicode="&#xfd;" horiz-adv-x="1136" d="M-4 1077h399l205 -678l166 678h362l-364 -1206q-31 -104 -100.5 -183t-166 -123t-206.5 -44q-51 0 -101.5 9t-99.5 30v331q47 -16 87 -25t73 -9q43 0 71.5 15t45 48t20.5 80zM477 1204l103 291h346l-203 -356z" />
<glyph unicode="&#xfe;" d="M98 -436v1890h400v-379l34 19q33 20 121 20q123 0 221.5 -52t169 -138t108.5 -191t38 -211q0 -117 -44 -222t-121 -187t-176 -129t-210 -47q-76 0 -108.5 17t-32.5 19v-409h-400zM498 367q0 -10 9 -23.5t26.5 -27t41 -22.5t50.5 -9q37 0 66.5 17t52 50t35 78t12.5 100 q0 66 -18.5 119t-54.5 85t-89 32q-31 0 -54.5 -11.5t-42 -33t-34.5 -51.5v-303z" />
<glyph unicode="&#xff;" horiz-adv-x="1136" d="M-4 1077h399l205 -678l166 678h362l-364 -1206q-31 -104 -100.5 -183t-166 -123t-206.5 -44q-51 0 -101.5 9t-99.5 30v331q47 -16 87 -25t73 -9q43 0 71.5 15t45 48t20.5 80zM204 1190v287h320v-287h-320zM675 1190v287h320v-287h-320z" />
<glyph unicode="&#x152;" horiz-adv-x="2109" d="M45 729q0 145 52.5 277.5t146.5 234.5t222 162.5t282 60.5q57 0 109 -11t101.5 -31.5t94.5 -49.5v82h977v-348h-578v-193h467v-348h-467v-217h596v-348h-995v84q-45 -29 -96.5 -50.5t-105.5 -32.5t-112 -11q-156 0 -283.5 61.5t-220 167t-141.5 237.5t-49 273zM451 725 q0 -74 17 -141.5t54 -121.5t92 -86t129 -32q76 0 131.5 33t90 88t52 123.5t17.5 140.5q0 74 -18.5 142.5t-54 122t-91 85t-129.5 31.5q-76 0 -130 -33t-90 -88t-53 -123.5t-17 -140.5z" />
<glyph unicode="&#x153;" horiz-adv-x="2029" d="M39 539q0 164 74.5 289.5t206 197.5t301.5 72q82 0 151.5 -18.5t130 -57.5t115.5 -100q96 94 189 135t212 41q170 0 301 -72t206 -198t75 -289q0 -31 -3 -63t-7 -56h-756q4 -49 29.5 -87t68.5 -60.5t97 -22.5q66 0 122 32.5t76 84.5l320 -95q-47 -90 -127 -156.5 t-182.5 -101t-221.5 -34.5q-72 0 -134 15t-125.5 52t-139.5 96q-76 -61 -138.5 -97t-122.5 -51t-132 -15q-172 0 -304.5 71.5t-207 197.5t-74.5 290zM438 539q0 -70 23.5 -122t67 -81t100.5 -29t100 29t66.5 81t23.5 122t-23.5 122t-66.5 80.5t-100 28.5t-100.5 -28.5 t-67 -81t-23.5 -121.5zM1223 653h368q-6 51 -30.5 89t-63.5 58.5t-90 20.5t-91 -20.5t-63.5 -58t-29.5 -89.5z" />
<glyph unicode="&#x178;" horiz-adv-x="1363" d="M-12 1454h432l260 -594l266 594h434l-501 -973v-481h-398v485zM284 1567v287h320v-287h-320zM755 1567v287h320v-287h-320z" />
<glyph unicode="&#x2c6;" horiz-adv-x="823" d="M41 1260l231 235h279l231 -235l-196 -86l-174 129l-174 -129z" />
<glyph unicode="&#x2dc;" horiz-adv-x="950" d="M41 1171q0 27 15.5 80.5t50 109.5t89 95t130.5 39q68 0 110.5 -26.5t80.5 -52t85 -25.5q45 0 66.5 24.5t29 51t7.5 28.5h204q0 -18 -16 -69.5t-51 -110t-90.5 -101.5t-135.5 -43q-61 0 -106 25t-83 49.5t-85 24.5q-45 0 -65.5 -23.5t-24.5 -48t-4 -27.5h-207z" />
<glyph unicode="&#x2000;" horiz-adv-x="943" />
<glyph unicode="&#x2001;" horiz-adv-x="1886" />
<glyph unicode="&#x2002;" horiz-adv-x="943" />
<glyph unicode="&#x2003;" horiz-adv-x="1886" />
<glyph unicode="&#x2004;" horiz-adv-x="628" />
<glyph unicode="&#x2005;" horiz-adv-x="471" />
<glyph unicode="&#x2006;" horiz-adv-x="314" />
<glyph unicode="&#x2007;" horiz-adv-x="314" />
<glyph unicode="&#x2008;" horiz-adv-x="235" />
<glyph unicode="&#x2009;" horiz-adv-x="377" />
<glyph unicode="&#x200a;" horiz-adv-x="104" />
<glyph unicode="&#x2010;" horiz-adv-x="845" d="M102 391v348h641v-348h-641z" />
<glyph unicode="&#x2011;" horiz-adv-x="845" d="M102 391v348h641v-348h-641z" />
<glyph unicode="&#x2012;" horiz-adv-x="845" d="M102 391v348h641v-348h-641z" />
<glyph unicode="&#x2013;" horiz-adv-x="1288" d="M102 391v348h1084v-348h-1084z" />
<glyph unicode="&#x2014;" horiz-adv-x="1941" d="M102 391v348h1737v-348h-1737z" />
<glyph unicode="&#x2018;" horiz-adv-x="600" d="M100 899v338l86 258h265l-54 -268h107v-328h-404z" />
<glyph unicode="&#x2019;" horiz-adv-x="587" d="M92 1167v328h404v-338l-86 -258h-265l54 268h-107z" />
<glyph unicode="&#x201a;" horiz-adv-x="608" d="M102 0v377h404v-387l-86 -299h-264l53 309h-107z" />
<glyph unicode="&#x201c;" horiz-adv-x="1110" d="M100 899v338l86 258h265l-54 -268h107v-328h-404zM610 899v338l86 258h265l-54 -268h107v-328h-404z" />
<glyph unicode="&#x201d;" horiz-adv-x="1087" d="M88 1196v328h404v-338l-86 -258h-265l54 268h-107zM598 1196v328h403v-338l-86 -258h-264l54 268h-107z" />
<glyph unicode="&#x201e;" horiz-adv-x="1093" d="M102 0v377h404v-387l-86 -299h-264l53 309h-107zM588 0v377h403v-387l-86 -299h-264l53 309h-106z" />
<glyph unicode="&#x2022;" horiz-adv-x="759" d="M139 723q0 66 33 120t87 87t120 33q68 0 122 -33t85.5 -87t31.5 -120t-31.5 -121t-86 -87t-121.5 -32q-66 0 -120 32t-87 87t-33 121z" />
<glyph unicode="&#x2026;" horiz-adv-x="1478" d="M102 0v377h316v-377h-316zM582 0v377h315v-377h-315zM1061 0v377h315v-377h-315z" />
<glyph unicode="&#x202f;" horiz-adv-x="377" />
<glyph unicode="&#x2039;" horiz-adv-x="741" d="M61 430v180l568 406v-311l-262 -175l262 -157v-312z" />
<glyph unicode="&#x203a;" horiz-adv-x="741" d="M113 61v312l262 157l-262 175v311l567 -406v-180z" />
<glyph unicode="&#x205f;" horiz-adv-x="471" />
<glyph unicode="&#x20ac;" horiz-adv-x="1642" d="M70 453l82 204h829l-82 -204h-829zM70 745l82 205h886l-82 -205h-886zM209 739q0 133 50 261t146.5 232.5t234.5 167t312 62.5q209 0 365 -87t231 -230l-305 -217q-27 72 -77 110.5t-108.5 54t-113.5 15.5q-86 0 -148.5 -34t-102.5 -89t-59.5 -122.5t-19.5 -135.5 q0 -76 22.5 -145.5t65.5 -124t105.5 -85t140.5 -30.5q55 0 112.5 17.5t104.5 56.5t72 104l326 -194q-43 -106 -143.5 -182t-227.5 -116t-252 -40q-162 0 -296 64.5t-231.5 172t-150.5 241.5t-53 273z" />
<glyph unicode="&#x2122;" horiz-adv-x="1867" d="M123 1212v246h635v-246h-195v-391h-246v391h-194zM852 821v633h371l71 -268l72 268h373v-633h-246v330l-98 -244h-199l-98 244v-330h-246z" />
<glyph unicode="&#x25fc;" horiz-adv-x="1075" d="M0 0v1075h1075v-1075h-1075z" />
</font>
</defs>
</svg>
